#TITLE:Roly Roly;
#SUBTITLE:Expi3nze;
#ARTIST:Tiara;
#TITLETRANSLIT:;
#SUBTITLETRANSLIT:;
#ARTISTTRANSLIT:;
#CREDIT:;
#BANNER:bn.png;
#BACKGROUND:bg.png;
#LYRICSPATH:;
#CDTITLE:cdtitle.png;
#MUSIC:Roly Roly.mp3;
#OFFSET:-0.162;
#SAMPLESTART:60.161;
#SAMPLELENGTH:29.538;
#SELECTABLE:YES;
#BPMS:0.000=129.999,5.000=130.005,6.000=129.999,12.000=130.005,13.000=129.999,18.000=130.005,19.000=129.999,21.000=260.024,21.250=65.006,21.375=130.012,21.500=260.024,21.750=65.006,21.875=130.012,22.000=260.024,22.250=65.006,22.375=130.012,22.500=260.024,22.750=65.006,22.875=130.012,23.000=129.999,24.000=130.005,25.000=260.024,25.250=65.006,25.375=130.012,25.500=260.024,25.750=65.006,25.875=130.012,26.000=260.024,26.250=65.006,26.375=130.012,26.500=260.024,26.750=65.006,26.875=130.012,27.000=129.999,28.000=130.005,29.000=260.024,29.250=65.006,29.375=130.012,29.500=260.024,29.750=65.006,29.875=130.012,30.000=260.024,30.250=65.006,30.375=130.012,30.500=260.024,30.750=65.006,30.875=130.012,31.000=129.999,32.000=260.024,33.000=259.998,34.000=65.006,34.167=260.024,34.500=65.006,34.667=260.024,35.000=65.006,35.167=260.024,35.500=65.006,35.667=260.024,36.000=130.005,37.000=129.999,42.000=130.005,43.000=129.999,49.000=130.005,50.000=65.001,50.333=260.024,51.000=130.005,52.000=129.999,57.000=130.005,58.000=129.999,64.000=130.005,65.000=129.999,66.000=65.001,66.333=260.024,67.000=130.005,68.000=129.999,73.000=130.005,74.000=129.999,80.000=130.005,81.000=129.999,87.000=130.005,88.000=129.999,93.000=130.005,94.000=129.999,100.000=130.005,101.000=129.999,107.000=130.005,108.000=129.999,113.000=130.005,114.000=129.999,120.000=130.005,121.000=129.999,126.000=130.005,127.000=129.999,133.000=130.005,134.000=129.999,139.000=130.005,140.000=129.999,146.000=130.005,147.000=129.999,152.000=130.005,153.000=129.999,159.000=130.005,160.000=129.999,165.000=130.005,166.000=129.999,171.000=130.005,172.000=129.999,178.000=65.001,178.333=260.024,179.000=130.005,180.000=129.999,186.000=130.005,187.000=129.999,192.000=130.005,193.000=129.999,194.000=65.001,194.333=260.024,195.000=130.005,196.000=129.999,202.000=130.005,203.000=129.999,204.000=260.024,204.250=65.006,204.375=130.012,204.500=260.024,204.750=65.006,204.875=130.012,205.000=260.024,205.250=65.006,205.375=130.012,205.500=260.024,205.750=65.006,205.875=130.012,206.000=129.999,208.000=260.024,208.250=65.006,208.375=130.012,208.500=260.024,208.750=65.006,208.875=130.012,209.000=260.024,209.250=65.006,209.375=130.012,209.500=260.024,209.750=65.006,209.875=130.012,210.000=129.999,213.000=130.005,214.000=129.999,219.000=130.005,220.000=129.999,223.000=259.998,225.000=129.999,226.000=130.005,227.000=129.999,233.000=130.005,234.000=129.999,239.000=130.005,240.000=129.999,246.000=130.005,247.000=129.999,252.000=130.005,253.000=129.999,259.000=130.005,260.000=129.999,265.000=130.005,266.000=129.999,272.000=130.005,273.000=129.999,279.000=130.005,280.000=129.999,285.000=130.005,286.000=129.999,292.000=130.005,293.000=129.999,298.000=130.005,299.000=129.999,305.000=130.005,306.000=129.999,307.000=65.001,307.333=260.024,308.000=129.999,309.000=130.005,310.000=129.999,316.000=130.005,317.000=129.999,322.000=130.005,323.000=65.001,323.333=260.024,324.000=129.999,325.000=130.005,326.000=129.999,327.000=195.003,330.000=129.999,331.000=130.005,332.000=129.999;
#STOPS:;
#BGCHANGES:;
// cache tags:
#FIRSTBEAT:1.000;
#LASTBEAT:331.000;
#SONGFILENAME:songs/SDO Latino/Roly Roly (Tiara)/Roly Roly.sm;
#HASMUSIC:1;
#HASBANNER:1;
#MUSICLENGTH:153.733;
// end cache tags

//---------------dance-single - ----------------
#NOTES:
     dance-single:
     :
     Hard:
     24:
     1.000,1.000,1.000,0.969,0.364,737.000,446.000,149.000,0.000,346.000:
0000
0000
0000
0000
0100
0100
0010
0100
1110
1110
1110
1101
2110
0000
0010
0000
,
3012
0203
0310
0210
0302
2013
3012
2013
,
3020
0000
0230
0000
0010
0300
0210
0000
2310
0000
3002
0000
2013
0000
0010
0000
,
3210
0000
0302
0000
0010
0003
2010
0000
3002
0000
0213
0000
2310
0000
3020
0000
,
0032
0000
2013
0000
0111
0000
3111
0000
1101
1011
1101
1011
1111
0000
1010
0000
,
1110
1000
0111
0111
0111
0111
0111
1100
,
1111
0011
1110
1110
1110
1110
1110
0101
,
1111
1010
1011
1011
1011
1011
1011
1000
,
0001
1000
1000
1001
1101
1011
1011
1011
,
1101
0000
1000
1100
1011
0000
0110
0000
1100
0000
1000
0000
1111
0000
0001
0000
,
0100
0000
0001
0011
1101
0000
0110
0000
0011
0000
0001
0000
1111
0000
1000
0000
,
0010
0000
1000
1100
1011
0000
0110
0000
1100
0000
1000
0000
1111
0000
0001
0000
,
0100
0000
0001
0011
1101
0000
1100
0000
1101
0000
0000
0000
1111
0000
1000
0000
,
0010
0000
1000
1100
1011
0000
0110
0000
1100
0000
1000
0000
1111
0000
0001
0000
,
0100
0000
0001
0011
1101
0000
0110
0000
0011
0000
0001
0000
1111
0000
1000
0000
,
0010
0000
1000
1100
1011
0000
0110
0000
1100
0000
1000
0000
1111
0000
0001
0000
,
0100
0000
0001
0011
1101
0000
1100
0000
1101
0000
0000
0000
1111
0000
0000
0000
,
2100
0100
0011
0010
0100
0100
0110
0010
,
3120
0100
0101
0001
1000
1000
1100
0100
,
1032
0100
1100
0010
0100
1000
1010
0010
,
0213
1000
1010
1000
0001
0010
0011
0001
,
1302
1000
1100
0100
1000
0010
0110
0100
,
2103
0010
0110
0100
0001
0010
0110
0100
,
3012
1000
1010
1000
0100
0010
0110
0100
,
0123
0000
0001
0000
0101
0000
1000
0000
0001
0000
0100
0000
1100
1100
1000
0100
,
2130
0000
0000
0000
0110
0000
0000
0010
0100
0000
0010
0000
0110
0000
0100
0000
,
3012
0000
1000
0000
1010
0000
0000
0010
1000
0000
0010
0000
1010
0000
1000
0000
,
1203
0010
1010
1000
0001
0010
0011
0001
,
2301
0000
0010
0000
0110
0000
0100
0000
0012
0000
0000
0003
0012
0000
0000
0003
,
3012
0000
0100
0000
0110
0000
0000
0100
0010
0000
0100
0000
0110
0000
0010
0000
,
2103
0000
0010
0000
0110
0000
0000
0100
0010
0000
0001
0000
0011
0000
0010
0000
,
3021
0001
1001
1000
0100
1000
1100
0100
,
2230
0000
0000
0000
0000
0000
0000
0000
0010
0000
0010
0000
0011
0011
0010
0001
,
3312
0000
0010
0113
0211
0000
0011
0000
1320
0000
1032
1100
2113
0000
3201
0000
,
2311
0000
0001
3011
1012
0000
1010
0000
2013
0000
0200
0010
3321
0100
0200
0001
,
2331
0000
0002
0213
0311
0000
0011
0000
0011
0000
0110
0000
0110
0000
0110
0000
,
3220
0000
0030
0011
2311
0000
0100
3110
2210
0001
0010
3311
1111
1111
1111
1111
,
0012
0000
0010
0113
0211
0000
0011
0000
1320
0000
1032
1100
2113
0000
3201
0000
,
2311
0000
0001
3011
1012
0000
1010
0000
2013
0000
0200
0010
3321
0100
0200
0001
,
2331
0000
0002
0213
0311
0000
0011
0000
0011
0000
0110
0000
0110
0000
0110
0000
,
3220
0000
0030
0011
2311
0000
0100
3110
2210
0001
0010
3311
1111
1111
1111
1111
,
1112
0000
1000
1103
1011
0000
0110
0000
1100
0000
1000
0000
1111
0000
0001
0000
,
0100
0000
0001
0011
1101
0000
0110
0000
0011
0000
0001
0000
1111
0000
1000
0000
,
0010
0000
1000
1100
1011
0000
0110
0000
1100
0000
1000
0000
1111
0000
0001
0000
,
0100
0000
0001
0011
1101
0000
1100
0000
1101
0000
0000
0000
1111
0000
1000
0000
,
0010
0000
1000
1100
1011
0000
0110
0000
1100
0000
1000
0000
1111
0000
0001
0000
,
0100
0000
0001
0011
1101
0000
0110
0000
0011
0000
0001
0000
1111
0000
1000
0000
,
0010
0000
1000
1100
1011
0000
0110
0000
1100
0000
1000
0000
1111
0000
0001
0000
,
0100
0000
0001
0011
1101
0000
1100
0000
1101
0000
0000
0000
1111
0000
0000
0000
,
1001
0000
1000
0000
0001
0000
1000
0000
0001
0000
1000
0010
0001
0000
1000
1010
,
1001
0000
1100
0000
0110
0000
0011
0000
0110
0000
1100
0000
0010
0001
1000
0000
,
1100
0000
1101
0000
1101
0000
1101
0000
1011
1011
1011
0011
0100
0000
0001
0100
,
1000
0000
1110
0000
1110
0000
1110
0000
1101
1101
1011
1101
1101
1011
1201
1312
,
1113
0011
0110
1100
1002
0100
1103
0110
,
0011
0000
0110
0000
1100
0000
1000
0000
0012
0000
1000
0000
1103
1000
0100
0000
,
1100
0000
1000
0000
1110
0000
0010
0000
1000
0000
1000
0010
1011
0000
1000
0000
,
0100
1000
0001
0000
1111
0000
0000
0000
0010
0000
0100
0010
1000
0000
0100
0000
,
0110
0000
1100
0000
0012
0000
0010
0113
0211
0000
0011
0000
1320
0000
1032
1100
,
2113
0000
3201
0000
2311
0000
0001
3011
1012
0000
1010
0000
2013
0000
0200
0010
,
3321
0100
0200
0001
2331
0000
0002
0213
0311
0000
0011
0000
0011
0000
0110
0000
,
0110
0000
0110
0000
3220
0000
0030
0011
2311
0000
0100
3110
2210
0001
0010
3311
,
1111
1111
1111
1111
0012
0000
0010
0113
0211
0000
0011
0000
1320
0000
1032
1100
,
2113
0000
3201
0000
2311
0000
0001
3011
1012
0000
1010
0000
2013
0000
0200
0010
,
3321
0100
0200
0001
2331
0000
0002
0213
0311
0000
0011
0000
0011
0000
0110
0000
,
0110
0000
0110
0000
3220
0000
0030
0011
2311
0000
0100
3110
2210
0001
0010
3311
,
1111
1111
1111
1111
2211
0000
0000
3300
1111
0000
0000
0000
2200
0000
0000
3300
,
1111
1000
1100
0011
0110
1100
1001
1001
,
0011
0110
2100
0110
0011
0110
0100
0100
,
0110
0000
0010
0000
3102
0010
0100
0010
0110
0100
0010
0000
0100
0000
0110
0000
,
0110
0000
0100
0000
0223
0000
0000
0330
1111
0000
0000
0000
0220
0000
0000
0330
,
1111
1000
1100
0011
0110
1100
1001
1001
,
0011
0110
2100
0110
0011
0110
0100
0100
,
0110
0000
0010
0000
3102
0010
0100
0010
0110
0100
0010
0000
0100
0000
0110
0000
,
0110
0000
0100
0000
1113
0000
1000
1100
1011
0000
0110
0000
1100
0000
1000
0000
,
1111
0000
0001
0000
0100
0000
0001
0011
1101
0000
0110
0000
0011
0000
0001
0000
,
1111
0000
1000
0000
0010
0000
1000
1100
1011
0000
0110
0000
1100
0000
1000
0000
,
1111
0000
0001
0000
0100
0000
0001
0011
1101
0000
1100
0000
1101
0000
0000
0000
,
1111
0000
1000
0000
0010
0000
1000
1100
1011
0000
0110
0000
1100
0000
1000
0000
,
1111
0000
0001
0000
0100
0000
0001
0011
1101
0000
0110
0000
0011
0000
0001
0000
,
1111
0000
1000
0000
0010
0000
1000
1100
1011
0000
0110
0000
1100
0000
1000
0000
,
1111
0000
0001
0000
0100
0000
0001
0011
1101
0000
1100
0000
1101
0000
0000
0000
,
1111
0000
0000
0000
2000
0000
3002
0000
2003
0000
3002
0000
2003
0000
0000
3002
,
0000
0000
2003
0000
0000
3002
0000
0000
2203
0000
0000
0000
3300
0000
0000
0000
,
0000
0000
0000
0000
,
0000
0000
0000
0000
,
0000
0000
0000
0000
,
0000
0000
0000
0000
,
0000
0000
0000
0000
,
0000
0000
0000
0000
,
0000
0000
0000
0000
,
0000
0000
0000
0000
,
0000
0000
0000
0000
,
0000
0000
0000
0000
,
0000
0000
0000
0000
,
0000
0000
0000
0000
,
0000
0000
0000
0000
,
0000
0000
0000
0000
,
0000
0000
0000
0000
,
0000
0000
0000
0000
,
0000
0000
0000
0000
;
